Amityville.The.Awakening.2017.FRENCH.HDRip.XviD.ACOOL.WwW.Torrent9.tv.avi | voir ├ępisode 5 | SD Megalodon
logo

Fanney Khan (2018) Hindi 720p HDRip x264 AAC Full Bollywood Movie...

  • Category Movies
  • Type Bollywood
  • Language Hindi
  • Total size 1.1 GB
  • Uploaded By BDMovieHD
  • Downloads 104
  • Last checked 59 minutes ago
  • Date uploaded 4 hours ago
  • Seeders 22
  • Leechers 35

Fanney Khan

ComedyDramaMusic

Fanney Khan is a struggling singer who wants to make his daughter a big name in music world.

Infohash : 441481A7331B1E161533F3FB60A154D946469D26

New Latest HD Movies Download Link :- http://skymovieshd.in
***********************************



Download Fanney Khan (2018) Hindi 720p HDRip x264 AAC Full Bollywood Movie 1.1GB -[SM Team] Torrent


==Media Info==


Video
ID : 1
Format : AVC
Format/Info : Advanced Video Codec
Format profile : [email protected]
Format settings : CABAC / 3 Ref Frames
Format settings, CABAC : Yes
Format settings, RefFrames : 3 frames
Codec ID : V_MPEG4/ISO/AVC
Duration : 2 h 9 min
Bit rate : 2 521 kb/s
Width : 1 280 pixels
Height : 544 pixels
Display aspect ratio : 2.35:1
Frame rate mode : Constant
Frame rate : 23.976 (23976/1000) FPS
Standard : Component
Color space : YUV
Chroma subsampling : 4:2:0
Bit depth : 8 bits
Scan type : Progressive
Bits/(Pixel*Frame) : 0.151
Stream size : 2.28 GiB (94%)
Title : SkyMoviesHD.in
Default : Yes
Forced : No
Color range : Limited
Color primaries : BT.709
Transfer characteristics : BT.709
Matrix coefficients : BT.709

Audio
ID : 2
Format : AAC LC
Format/Info : Advanced Audio Codec Low Complexity
Codec ID : A_AAC-2
Duration : 2 h 9 min
Bit rate : 161 kb/s
Channel(s) : 2 channels
Channel layout : L R
Sampling rate : 44.1 kHz
Frame rate : 43.066 FPS (1024 SPF)
Compression mode : Lossy
Stream size : 149 MiB (6%)
Title : SkyMoviesHD.in
Default : Yes
Forced : No


Download Fanney Khan (2018) Hindi 720p HDRip x264 AAC Full Bollywood Movie 1.1GB -[SM Team] Torrent
Download Fanney Khan (2018) Hindi 720p HDRip x264 AAC Full Bollywood Movie 1.1GB -[SM Team] Torrent
Download Fanney Khan (2018) Hindi 720p HDRip x264 AAC Full Bollywood Movie 1.1GB -[SM Team] Torrent
Download Fanney Khan (2018) Hindi 720p HDRip x264 AAC Full Bollywood Movie 1.1GB -[SM Team] Torrent
Download Fanney Khan (2018) Hindi 720p HDRip x264 AAC Full Bollywood Movie 1.1GB -[SM Team] Torrent
Download Fanney Khan (2018) Hindi 720p HDRip x264 AAC Full Bollywood Movie 1.1GB -[SM Team] Torrent
Download Fanney Khan (2018) Hindi 720p HDRip x264 AAC Full Bollywood Movie 1.1GB -[SM Team] Torrent
Download Fanney Khan (2018) Hindi 720p HDRip x264 AAC Full Bollywood Movie 1.1GB -[SM Team] Torrent



New Latest HD Movies Download Link :- http://skymovieshd.in
***********************************


Files:

  • Fanney Khan (2018) Hindi 720p HD AVC MP4 UNTOUt (SkyMoviesHD.in).mkv (1.1 GB)

There are currently no comments. Feel free to leave one :)

Code:

  • udp://tracker.coppersurfer.tk:6969/announce
  • udp://tracker.leechers-paradise.org:6969/announce
  • udp://tracker.pirateparty.gr:6969/announce
  • udp://tracker.coppersurfer.tk:6969
  • udp://open.demonii.si:1337/announce
  • udp://tracker.tiny-vps.com:6969/announce
  • udp://9.rarbg.me:2710/announce
  • udp://9.rarbg.to:2710/announce
  • udp://public.popcorn-tracker.org:6969/announce
  • udp://tracker.torrent.eu.org:451/announce
  • udp://tracker.vanitycore.co:6969/announce
  • udp://ipv4.tracker.harry.lu:80/announce
  • udp://tracker.opentrackr.org:1337/announce
  • udp://exodus.desync.com:6969/announce
  • udp://tracker.cypherpunks.ru:6969/announce
X
Attention! Use a VPN when Accessing Free Content !
Your IP address is - Country:
Your Internet provider Tracks your Activity! Hide your IP ADDRESS with a VPN!
Bonus: Get Lag-Free Streams & No popups with any VPN Purchased !

Download Here