July 2015 | Download Now | HD The Wrong Neighbor
logo

Ant-Man and The Wasp (2018) (1080p BluRay x265 HEVC 10bit AAC 7.1...

  • Category Movies
  • Type HEVC/x265
  • Language English
  • Total size 1.7 GB
  • Uploaded By UTRCorp
  • Downloads 967
  • Last checked 1 week ago
  • Date uploaded 2 weeks ago
  • Seeders 28
  • Leechers 3

Ant-Man and the Wasp

ActionAdventureFantasyComedyScience Fiction

As Scott Lang balances being both a superhero and a father, Hope van Dyne and Dr. Hank Pym present an urgent new mission that finds the Ant-Man fighting alongside the Wasp to uncover secrets from their past.

Infohash : 7F8BF8A59745E852C8930E2D32D0F59E1D4D4BD6

Download Ant-Man and The Wasp (2018) (1080p BluRay x265 HEVC 10bit AAC 7.1 Joy) [UTR] Torrent

Download Ant-Man and The Wasp (2018) (1080p BluRay x265 HEVC 10bit AAC 7.1 Joy) [UTR] Torrent
Download Ant-Man and The Wasp (2018) (1080p BluRay x265 HEVC 10bit AAC 7.1 Joy) [UTR] Torrent
Download Ant-Man and The Wasp (2018) (1080p BluRay x265 HEVC 10bit AAC 7.1 Joy) [UTR] Torrent
Download Ant-Man and The Wasp (2018) (1080p BluRay x265 HEVC 10bit AAC 7.1 Joy) [UTR] Torrent

[CENTER]Download Ant-Man and The Wasp (2018) (1080p BluRay x265 HEVC 10bit AAC 7.1 Joy) [UTR] Torrent

Media Information

Media Information

Code:

General
Format : Matroska
Format version : Version 4 / Version 2
File size : 1.68 GiB
Duration : 1 h 58 min
Overall bit rate : 2 035 kb/s
Movie name : Ant-Man and The Wasp 2018 (1080p x265 10bit FS98 Joy)[UTR]
Encoded date : UTC 2018-10-09 04:12:54
Writing application : mkvmerge v24.0.0 ('Beyond The Pale') 64-bit
Writing library : libebml v1.3.6 + libmatroska v1.4.9
Cover : Yes
Attachments : cover.jpg
Writing frontend : StaxRip v1.9.0.0

Video
ID : 1
Format : HEVC
Format/Info : High Efficiency Video Coding
Format profile : Main [email protected]@Main
Codec ID : V_MPEGH/ISO/HEVC
Duration : 1 h 58 min
Bit rate : 1 497 kb/s
Width : 1 920 pixels
Height : 800 pixels
Display aspect ratio : 2.40:1
Frame rate mode : Constant
Frame rate : 23.976 (24000/1001) FPS
Color space : YUV
Chroma subsampling : 4:2:0
Bit depth : 10 bits
Bits/(Pixel*Frame) : 0.041
Stream size : 1.23 GiB (74%)
Writing library : x265 2.8+69-856f056d392e:[Windows][MSVC 1915][64 bit] 10bit
Encoding settings : cpuid=1111039 / frame-threads=4 / numa-pools=16 / wpp / no-pmode / no-pme / no-psnr / ssim / log-level=2 / input-csp=1 / input-res=1920x800 / interlace=0 / total-frames=169907 / level-idc=0 / high-tier=1 / uhd-bd=0 / ref=4 / no-allow-non-conformance / no-repeat-headers / annexb / no-aud / no-hrd / info / hash=0 / no-temporal-layers / open-gop / min-keyint=23 / keyint=250 / gop-lookahead=0 / bframes=4 / b-adapt=2 / b-pyramid / bframe-bias=0 / rc-lookahead=80 / lookahead-slices=4 / scenecut=40 / radl=0 / no-intra-refresh / ctu=64 / min-cu-size=8 / rect / no-amp / max-tu-size=32 / tu-inter-depth=1 / tu-intra-depth=1 / limit-tu=0 / rdoq-level=2 / dynamic-rd=0.00 / ssim-rd / signhide / no-tskip / nr-intra=0 / nr-inter=0 / no-constrained-intra / strong-intra-smoothing / max-merge=3 / limit-refs=3 / limit-modes / me=3 / subme=3 / merange=57 / temporal-mvp / weightp / no-weightb / no-analyze-src-pics / deblock=0:0 / sao / no-sao-non-deblock / rd=4 / no-early-skip / rskip / no-fast-intra / no-tskip-fast / no-cu-lossless / no-b-intra / no-splitrd-skip / rdpenalty=0 / psy-rd=0.00 / psy-rdoq=1.00 / no-rd-refine / no-lossless / cbqpoffs=0 / crqpoffs=0 / rc=abr / bitrate=1500 / qcomp=0.60 / qpstep=4 / stats-write=0 / stats-read=2 / cplxblur=20.0 / qblur=0.5 / vbv-maxrate=2700 / vbv-bufsize=5400 / vbv-init=0.9 / ipratio=1.40 / pbratio=1.30 / aq-mode=2 / aq-strength=0.80 / cutree / zone-count=0 / no-strict-cbr / qg-size=32 / no-rc-grain / qpmax=69 / qpmin=0 / no-const-vbv / sar=0 / overscan=0 / videoformat=5 / range=0 / colorprim=2 / transfer=2 / colormatrix=2 / chromaloc=0 / display-window=0 / max-cll=0,0 / min-luma=0 / max-luma=1023 / log2-max-poc-lsb=8 / vui-timing-info / vui-hrd-info / slices=1 / no-opt-qp-pps / no-opt-ref-list-length-pps / multi-pass-opt-rps / scenecut-bias=0.05 / no-opt-cu-delta-qp / no-aq-motion / no-hdr / no-hdr-opt / no-dhdr10-opt / no-idr-recovery-sei / analysis-reuse-level=10 / scale-factor=0 / refine-intra=0 / refine-inter=0 / refine-mv=0 / limit-sao / ctu-info=0 / no-lowpass-dct / refine-mv-type=0 / copy-pic=1 / max-ausize-factor=1.0 / no-dynamic-refine / no-single-sei
Default : Yes
Forced : No

Audio #1
ID : 2
Format : AAC
Format/Info : Advanced Audio Codec
Format profile : LC
Codec ID : A_AAC
Duration : 1 h 58 min
Bit rate : 343 kb/s
Channel(s) : 7 channels
Channel(s)_Original : 8 channels
Channel positions : Front: L C R, Side: L R, Back: L R, LFE
Sampling rate : 48.0 kHz
Frame rate : 46.875 FPS (1024 spf)
Compression mode : Lossy
Delay relative to video : 9 ms
Stream size : 290 MiB (17%)
Language : English
Default : No
Forced : No

Audio #2
ID : 3
Format : AAC
Format/Info : Advanced Audio Codec
Format profile : HE-AAC / LC
Codec ID : A_AAC
Duration : 1 h 58 min
Bit rate : 44.2 kb/s
Channel(s) : 2 channels
Channel positions : Front: L R
Sampling rate : 48.0 kHz / 24.0 kHz
Frame rate : 23.438 FPS (1024 spf)
Compression mode : Lossy
Delay relative to video : 31 ms
Stream size : 37.3 MiB (2%)
Title : Directors Commentary
Language : English
Default : No
Forced : No

Subtitle #1
ID : 4
Format : PGS
Muxing mode : zlib
Codec ID : S_HDMV/PGS
Codec ID/Info : Picture based subtitle format used on BDs/HD-DVDs
Duration : 1 h 57 min
Bit rate : 44.7 kb/s
Count of elements : 4274
Stream size : 37.6 MiB (2%)
Language : English
Default : No
Forced : No

Subtitle #2
ID : 5
Format : PGS
Muxing mode : zlib
Codec ID : S_HDMV/PGS
Codec ID/Info : Picture based subtitle format used on BDs/HD-DVDs
Duration : 1 h 57 min
Bit rate : 31.1 kb/s
Count of elements : 3580
Stream size : 26.2 MiB (2%)
Language : French
Default : No
Forced : No

Subtitle #3
ID : 6
Format : PGS
Muxing mode : zlib
Codec ID : S_HDMV/PGS
Codec ID/Info : Picture based subtitle format used on BDs/HD-DVDs
Duration : 1 h 57 min
Bit rate : 36.0 kb/s
Count of elements : 3588
Stream size : 30.3 MiB (2%)
Language : Spanish
Default : No
Forced : No

Subtitle #4
ID : 7
Format : PGS
Muxing mode : zlib
Codec ID : S_HDMV/PGS
Codec ID/Info : Picture based subtitle format used on BDs/HD-DVDs
Duration : 1 h 57 min
Bit rate : 36.0 kb/s
Count of elements : 3534
Stream size : 30.3 MiB (2%)
Language : Portuguese
Default : No
Forced : No

Subtitle #5
ID : 8
Format : PGS
Muxing mode : zlib
Codec ID : S_HDMV/PGS
Codec ID/Info : Picture based subtitle format used on BDs/HD-DVDs
Duration : 1 h 57 min
Bit rate : 87.3 kb/s
Count of elements : 4804
Stream size : 73.7 MiB (4%)
Title : Directors Commentary
Language : English
Default : No
Forced : No

Subtitle #6
ID : 9
Format : PGS
Muxing mode : zlib
Codec ID : S_HDMV/PGS
Codec ID/Info : Picture based subtitle format used on BDs/HD-DVDs
Duration : 1 h 57 min
Bit rate : 74.4 kb/s
Count of elements : 4776
Stream size : 62.8 MiB (4%)
Title : Directors Commentary
Language : French
Default : No
Forced : No

Subtitle #7
ID : 10
Format : PGS
Muxing mode : zlib
Codec ID : S_HDMV/PGS
Codec ID/Info : Picture based subtitle format used on BDs/HD-DVDs
Duration : 1 h 57 min
Bit rate : 83.5 kb/s
Count of elements : 4776
Stream size : 70.4 MiB (4%)
Title : Directors Commentary
Language : Spanish
Default : No
Forced : No

Subtitle #8
ID : 11
Format : PGS
Muxing mode : zlib
Codec ID : S_HDMV/PGS
Codec ID/Info : Picture based subtitle format used on BDs/HD-DVDs
Duration : 1 h 57 min
Bit rate : 78.7 kb/s
Count of elements : 4776
Stream size : 66.4 MiB (4%)
Title : Directors Commentary
Language : Portuguese
Default : No
Forced : No

Subtitle #9
ID : 12
Format : UTF-8
Codec ID : S_TEXT/UTF8
Codec ID/Info : UTF-8 Plain Text
Duration : 1 h 51 min
Bit rate : 149 b/s
Count of elements : 1738
Stream size : 122 KiB (0%)
Language : Bengali
Default : No
Forced : No

Subtitle #10
ID : 13
Format : UTF-8
Codec ID : S_TEXT/UTF8
Codec ID/Info : UTF-8 Plain Text
Duration : 1 h 57 min
Bit rate : 48 b/s
Count of elements : 1806
Stream size : 41.6 KiB (0%)
Language : Chinese
Default : No
Forced : No

Subtitle #11
ID : 14
Format : UTF-8
Codec ID : S_TEXT/UTF8
Codec ID/Info : UTF-8 Plain Text
Duration : 1 h 51 min
Bit rate : 52 b/s
Count of elements : 973
Stream size : 42.9 KiB (0%)
Language : Dutch
Default : No
Forced : No

Subtitle #12
ID : 15
Format : UTF-8
Codec ID : S_TEXT/UTF8
Codec ID/Info : UTF-8 Plain Text
Duration : 1 h 50 min
Bit rate : 102 b/s
Count of elements : 1532
Stream size : 83.0 KiB (0%)
Language : Persian
Default : No
Forced : No

Subtitle #13
ID : 16
Format : UTF-8
Codec ID : S_TEXT/UTF8
Codec ID/Info : UTF-8 Plain Text
Duration : 1 h 50 min
Bit rate : 90 b/s
Count of elements : 1930
Stream size : 73.7 KiB (0%)
Language : Hebrew
Default : No
Forced : No

Subtitle #14
ID : 17
Format : UTF-8
Codec ID : S_TEXT/UTF8
Codec ID/Info : UTF-8 Plain Text
Duration : 1 h 51 min
Bit rate : 52 b/s
Count of elements : 1754
Stream size : 43.0 KiB (0%)
Language : Indonesian
Default : No
Forced : No

Subtitle #15
ID : 18
Format : UTF-8
Codec ID : S_TEXT/UTF8
Codec ID/Info : UTF-8 Plain Text
Duration : 1 h 50 min
Bit rate : 68 b/s
Count of elements : 1251
Stream size : 55.8 KiB (0%)
Language : Norwegian
Default : No
Forced : No

Subtitle #16
ID : 19
Format : UTF-8
Codec ID : S_TEXT/UTF8
Codec ID/Info : UTF-8 Plain Text
Duration : 1 h 47 min
Bit rate : 73 b/s
Count of elements : 1532
Stream size : 57.7 KiB (0%)
Language : Romanian
Default : No
Forced : No

Subtitle #17
ID : 20
Format : UTF-8
Codec ID : S_TEXT/UTF8
Codec ID/Info : UTF-8 Plain Text
Duration : 1 h 57 min
Bit rate : 107 b/s
Count of elements : 2079
Stream size : 92.8 KiB (0%)
Language : Russian
Default : No
Forced : No

Subtitle #18
ID : 21
Format : UTF-8
Codec ID : S_TEXT/UTF8
Codec ID/Info : UTF-8 Plain Text
Duration : 1 h 58 min
Bit rate : 111 b/s
Count of elements : 1768
Stream size : 96.7 KiB (0%)
Language : Thai
Default : No
Forced : No

Subtitle #19
ID : 22
Format : UTF-8
Codec ID : S_TEXT/UTF8
Codec ID/Info : UTF-8 Plain Text
Duration : 1 h 57 min
Bit rate : 61 b/s
Count of elements : 1482
Stream size : 53.5 KiB (0%)
Language : Turkish
Default : No
Forced : No

Subtitle #20
ID : 23
Format : UTF-8
Codec ID : S_TEXT/UTF8
Codec ID/Info : UTF-8 Plain Text
Duration : 1 h 50 min
Bit rate : 80 b/s
Count of elements : 1866
Stream size : 65.5 KiB (0%)
Language : Vietnamese
Default : No
Forced : No

Menu
00:00:00.000 : en:Chapter 01
00:04:03.034 : en:Chapter 02
00:10:16.407 : en:Chapter 03
00:13:39.860 : en:Chapter 04
00:21:25.450 : en:Chapter 05
00:29:07.829 : en:Chapter 06
00:36:09.083 : en:Chapter 07
00:40:56.579 : en:Chapter 08
00:50:17.431 : en:Chapter 09
00:58:59.077 : en:Chapter 10
01:04:56.434 : en:Chapter 11
01:12:54.286 : en:Chapter 12
01:18:32.124 : en:Chapter 13
01:24:44.913 : en:Chapter 14
01:29:47.340 : en:Chapter 15
01:36:16.270 : en:Chapter 16
01:43:35.334 : en:Chapter 17
01:46:59.830 : en:Chapter 18



Source Information

Code:

Release:
Ant-Man and The Wasp 2018.mkv (32.27 GBs)




We have no issue with individuals posting or re-uploading our torrents on a platform we aren't on. However, if this is something you'd like to do, please do so in a 'as-is' format. We ask that you do not create a new torrent, include all descriptions you see above including the UTR logo, tags, notes and screenshots. If you'd like to become a permanent poster on a website we don't post to, feel free to get in contact with a UniTeam member.

Files:

  • Ant-Man and The Wasp 2018 (1080p x265 10bit FS98 Joy).mkv (1.7 GB)

Comments

Code:

  • udp://mgtracker.org:6969/announce
  • udp://tracker.coppersurfer.tk:6969/announce
  • udp://9.rarbg.com:2710/announce
  • udp://9.rarbg.to:2710/announce
  • udp://tracker.mgtracker.org:2710/announce
  • udp://public.popcorn-tracker.org:6969/announce
  • udp://tracker.torrent.eu.org:451/announce
  • udp://exodus.desync.com:6969/announce
  • udp://tracker.tiny-vps.com:6969/announce
  • udp://tracker.torrent.eu.org:451/announce
  • udp://open.demonii.si:1337/announce
  • udp://tracker.opentrackr.org:1337/announce
X
Attention! Use a VPN when Accessing Free Content !
Your IP address is - Country:
Your Internet provider Tracks your Activity! Hide your IP ADDRESS with a VPN!
Bonus: Get Lag-Free Streams & No popups with any VPN Purchased !

Download Here